#TITLE:L2;
#SUBTITLE:;
#ARTIST:Unknown artist;
#TITLETRANSLIT:;
#SUBTITLETRANSLIT:;
#ARTISTTRANSLIT:;
#CREDIT:;
#BANNER:l2-logo.png;
#BACKGROUND:L2.png;
#LYRICSPATH:;
#CDTITLE:L2-ico.png;
#MUSIC:L2.ogg;
#OFFSET:0.000;
#SAMPLESTART:100.000;
#SAMPLELENGTH:12.000;
#SELECTABLE:YES;
#BPMS:0.000=137.030;
#STOPS:;
#BGCHANGES:;
// cache tags:
#FIRSTBEAT:20.000;
#LASTBEAT:283.000;
#SONGFILENAME:Songs/SDO/L2/L2.sm;
#HASMUSIC:1;
#HASBANNER:1;
#MUSICLENGTH:125.392;
// end cache tags

//---------------dance-single - dl----------------
#NOTES:
     dance-single:
     dl:
     Hard:
     9:
     0.861,1.000,0.909,0.191,0.837,590.000,114.000,24.000,0.000,80.000:



0000
0000
0000
0000
,
0000
0000
0000
0000
,
0000
0000
0000
0000
,
0000
0000
0000
0000
,
0000
0000
0000
0000
,
1001
0000
0101
0000
1010
0000
0101
0010
,
1001
0000
0101
0000
1010
0000
0101
0010
,
1001
0000
0101
0000
1010
0000
0101
0010
,
1001
0000
0101
0000
1010
0000
0101
0010
,
1001
1000
0110
1000
0101
0010
1010
0001
,
0110
0010
1001
0010
0101
1000
0011
0010
,
0010
0100
1000
0010
0001
0010
0001
0100
0010
0100
1000
0100
0001
0010
0001
0010
,
0100
1000
0010
0100
0010
0001
0010
1000
0001
0100
0001
0100
1000
0010
0001
0000
,
1000
0000
0101
0000
0101
0000
0000
0000
0011
0000
0000
0011
0000
0000
0101
0000
,
0000
0000
1010
0000
1010
0000
0000
0000
0110
0000
0000
0110
0000
0000
1010
0000
,
0000
0000
0101
0000
0101
0000
0000
0000
0011
0000
0000
0011
0000
0000
0101
0000
,
0000
0000
1010
0000
1010
0000
0000
0000
0110
0000
0000
0110
0000
0000
1010
0000
,
1000
0100
0010
0001
1000
0100
0010
0001
1000
0100
0010
0001
0001
0010
0100
1000
,
0001
0010
0100
1000
0001
0010
0100
1000
1000
0100
0010
0001
1000
0100
0010
0001
,
0100
0002
0000
0000
0000
0000
0000
0000
,
0003
0101
1010
0011
,
2210
0001
0010
0000
0010
0001
0010
0000
0010
0001
0010
0000
0010
0001
0010
0000
,
3312
0000
1100
0110
,
2203
0000
0000
0000
0010
0001
0010
0000
0010
0001
0010
0000
0010
0001
0010
0000
,
3310
1000
0011
0100
1100
0010
0011
0000
,
2102
0010
0100
0000
0100
0010
0100
0000
0100
0010
0100
0000
3113
0000
0000
0000
,
0202
0000
2323
0000
,
3232
0000
0000
0000
,
0303
1000
0010
0100
0001
0100
0001
1000
,
1212
0000
0000
0000
,
2323
0000
0000
0000
0100
0001
0100
0000
0100
0001
0100
0000
0100
0001
0100
0000
,
3232
0000
0000
0000
0010
1000
0010
0000
0010
1000
0010
0000
0010
1000
0010
0000
,
0010
1000
0010
0000
0313
0000
1000
0000
0101
0000
0010
0000
0101
0000
0000
0000
,
2000
0000
0000
3001
,
0110
0011
1100
0011
,
2111
0000
0000
0000
,
0000
0000
0000
3000
,
0011
1000
0100
0001
0010
1000
0100
0001
,
0010
0100
0001
0100
0001
0010
0001
1000
,
0100
1000
0100
0001
0010
0000
0000
0000
,
1000
0001
1000
0001
1000
0001
1000
0001
1000
0001
1000
0001
1000
0001
1000
0001
1000
0001
1000
0001
1000
0001
1000
0001
1000
0001
1000
0001
0000
0000
0000
0000
,
1100
0011
0110
1100
0110
1100
1101
0010
,
0011
0011
0000
0000
0000
0000
0100
1000
0100
1000
0100
0010
0001
0010
0100
1000
,
0100
0010
0100
0010
0001
0010
0000
0000
1111
0000
1111
0000
1111
0000
0000
0000
,
1100
0011
0110
1100
0110
1100
1101
0010
,
0101
0101
0000
0000
0000
0000
0100
1000
0100
1000
0100
0010
0001
0010
0100
1000
,
0100
0010
0100
0010
0001
0010
0000
0000
1111
0000
1111
0000
1111
0000
0000
0000
,
1000
0000
0100
0000
1000
0000
0100
0000
0001
0000
0010
0000
0100
0000
0000
0000
0001
0010
0001
0010
0000
0000
0000
0000
0000
0000
0000
0000
0000
0000
0001
0000
,
0010
0001
0010
0001
0100
1000
0100
1000
0010
0001
0010
0001
0100
0001
0010
0100
,
1100
0000
1100
0000
1100
0000
0000
0000
1000
0100
1000
0100
0001
0010
0100
0000
,
0001
0010
0001
0010
0000
0000
0000
0000
0000
0000
0000
0000
0000
0000
0001
0000
0010
0000
0001
0000
0010
0000
0001
0000
0100
0000
1000
0000
0100
0000
1000
0000
,
0010
0001
0010
0001
0100
0001
0010
0100
1100
0000
1100
0000
1100
0000
0000
0000
,
1000
0100
1000
0100
1000
0100
1000
0010
0100
0010
0001
0010
0100
1000
0100
0010
,
0001
0010
0001
0010
0001
0000
0000
0010
0001
0010
0100
1000
0100
0010
0100
0000
,
0001
0010
0001
0010
0001
0010
0000
0000
1000
0100
0010
0001
0010
0000
0000
0000
,
1000
0100
0010
0001
0010
0100
1000
0100
0010
0001
0010
0001
0000
0000
0000
0000
,
1000
0100
1000
0100
1000
0100
1000
0010
0100
0010
0001
0010
0100
1000
0100
0010
,
0001
0010
0001
0010
0001
0000
0000
0010
0001
0010
0100
1000
0100
0010
0100
0000
,
0001
0010
0001
0010
0001
0010
0000
0000
1000
0100
0010
0001
0010
0000
0000
0000
,
1000
0100
0010
0001
0010
0100
1000
0100
0010
0001
0010
0001
0000
0000
0000
0000
,
1101
0011
0111
1010
,
0000
0000
0100
0000
0010
0100
0000
0000
0010
0000
1000
0000
1000
0000
0001
0010
,
0100
1000
0100
1000
0100
0001
0010
0001
0010
0100
0010
0001
0010
0100
1000
0100
,
0010
0001
0010
0100
1000
0100
0010
0000
0001
0000
0001
0000
0001
0000
0000
0000
,
1101
0011
1101
1010
,
0000
0000
0100
0000
0010
0100
0000
0000
0010
0000
1000
0000
1000
0000
0001
0010
,
0001
0010
0001
0010
0001
1000
0100
1000
0010
0001
0010
0001
0100
0010
1000
0001
,
0100
0001
0010
0100
1000
0100
0010
0001
0010
0100
0010
0001
0010
0001
0010
0001
,
0011
1000
0100
1000
0100
1000
0100
1000
0110
0010
0001
0010
0001
0010
0001
0010
,
1101
0111
2112
0000
,
3013
0000
0000
0010
0000
0000
0010
0000
;
